travismk
一代宗师

[2020] [欧美] [WEB-1080P] 盲爬 Climbing.Blind.2020.1080p.iP.WEBRip.AAC2.0.x264-WELP 4.13GB

-->

帖子完整标题:盲爬 Climbing.Blind.2020.1080p.iP.WEBRip.AAC2.0.x264-WELP 4.13GB



◎译  名 盲爬
◎片  名 Climbing Blind
◎年  代 2020
◎产  地 英国
◎类  别 
◎语  言 英语
◎上映日期 2020-03-20(英国) / 2020-08-27(澳大利亚)
◎IMDb评分 7.4/10 from 31 users
◎IMDb链接 https://www.imdb.com/title/tt11801494/
◎豆瓣评分 /10 from 0 users
◎豆瓣链接 https://movie.douban.com/subject/35181084/

◎简  介

  记录一个有视力障碍的极限运动者

Video
ID : 1
Format : AVC
Format/Info : Advanced Video Codec
Format profile : [email protected]
Format settings : CABAC / 4 Ref Frames
Format settings, CABAC : Yes
Format settings, Reference frames : 4 frames
Codec ID : V_MPEG4/ISO/AVC
Duration : 56 min 26 s
Bit rate mode : Variable
Bit rate : 10.3 Mb/s
Maximum bit rate : 12.0 Mb/s
Width : 1 920 pixels
Height : 1 080 pixels
Display aspect ratio : 16:9
Frame rate mode : Constant
Frame rate : 50.000 FPS
Color space : YUV
Chroma subsampling : 4:2:0
Bit depth : 8 bits
Scan type : Progressive
Bits/(Pixel*Frame) : 0.100
Stream size : 4.08 GiB (99%)
Default : Yes
Forced : No
Color range : Limited
Color primaries : BT.709
Transfer characteristics : BT.709
Matrix coefficients : BT.709

Audio
ID : 2
Format : AAC LC
Format/Info : Advanced Audio Codec Low Complexity
Codec ID : A_AAC-2
Duration : 56 min 26 s
Bit rate : 128 kb/s
Channel(s) : 2 channels
Channel layout : L R
Sampling rate : 48.0 kHz
Frame rate : 46.875 FPS (1024 SPF)
Compression mode : Lossy
Stream size : 51.7 MiB (1%)
Language : English
Default : Yes
Forced : No

Text #1
ID : 3
Format : UTF-8
Codec ID : S_TEXT/UTF8
Codec ID/Info : UTF-8 Plain Text
Duration : 54 min 35 s
Bit rate : 108 b/s
Count of elements : 1063
Stream size : 43.2 KiB (0%)
Language : English
Default : No
Forced : No

Text #2
ID : 4
Format : UTF-8
Codec ID : S_TEXT/UTF8
Codec ID/Info : UTF-8 Plain Text
Duration : 54 min 35 s
Bit rate : 108 b/s
Count of elements : 1074
Stream size : 43.3 KiB (0%)
Title : SDH
Language : English
Default : No
Forced : No

Menu
00:55:56.000 : en:Credits





1 个附件 售价 大小 下载 时间

Climbing.Blind.2020.1080p.iP.WEBRip.AAC2.0.x264-WELP.zip 0 金币 41.99K 308 次 1月前

#1楼
发帖时间:2021-03-05 14:53:44   |   回复数:0
游客组