travismk
一代宗师

[更 早] [欧美] [剧情] [WEB-1080P] 危机 Crisis.2021.1080p.AMZN.WEBRip.DDP5.1.x264-CM 9.39GB

-->

帖子完整标题:危机 Crisis.2021.1080p.AMZN.WEBRip.DDP5.1.x264-CM 9.39GB



◎译  名 危机/Dreamland/幻境/梦境
◎片  名 Crisis
◎年  代 2021
◎产  地 美国
◎类  别 剧情 / 惊悚
◎语  言 英语
◎上映日期 2021-02-26(美国) / 2021-03-05(美国网络)
◎IMDb评分 6.5/10 from 210 users
◎IMDb链接 https://www.imdb.com/title/tt9731682/
◎豆瓣评分 /10 from 0 users
◎豆瓣链接 https://movie.douban.com/subject/30454221/
◎片  长 115分钟
◎导  演 尼古拉斯·亚雷茨基 Nicholas Jarecki
◎编  剧 尼古拉斯·亚雷茨基 Nicholas Jarecki
◎主  演 加里·奥德曼 Gary Oldman
      艾米·汉莫 Armie Hammer
      伊万杰琳·莉莉 Evangeline Lilly
      格雷戈·金尼尔 Greg Kinnear
      米歇尔·罗德里格兹 Michelle Rodriguez
      卡迪小子 Kid Cudi
      因迪拉·瓦玛 Indira Varma
      莉莉-罗丝·德普 Lily-Rose Melody Depp
      米娅·科施娜 Mia Kirshner
      迈克尔·阿伦诺夫 Michael Aronov
      维罗尼卡·费瑞尔 Veronica Ferres
      尼古拉斯·亚雷茨基 Nicholas Jarecki
      约翰·拉尔斯顿 John Ralston
      马丁·唐文 Martin Donovan
      埃里克·布吕诺 éric Bruneau
      杜克·尼科尔森 Duke Nicholson
      埃洛拉·托尔基亚 Ellora Torchia
      卢克·伊万斯 Luke Evans
      夸西·宋桂 Kwasi Songui
      本兹·安托万 Benz Antoine
      神奈川宏幸 Hiro Kanagawa
      托妮·伽恩 Toni Garrn
      阿莱恩·古勒姆 Alain Goulem
      莎拉·桑帕约 Sara Sampaio
      道恩·福特 Dawn Ford
      杰森·卡弗利尔 Jason Cavalier
      毛里齐奥·泰拉扎诺 Maurizio Terrazzano
      袁罗素 Russell Yuen
      斯蒂芬妮·科斯塔 Stephanie Costa
      马丁·德普纳 Martin Doepner
      Katie Emme McIninch

◎标  签 美国 | 惊悚 | 艾米·汉莫 | 加里·奥德曼 | 美国电影 | 犯罪 | 2021 | 米歇尔·罗德里格兹

◎简  介

  加里·奥德曼、艾米·汉莫、伊万杰琳·莉莉将主演新惊悚片《幻境》(Dreamland),号称是第一部聚焦国际“鸦片类药物危机”的院线片。已经开拍,将在蒙特利尔和底特律拍摄。
  
  尼古拉斯·亚雷茨基(《套利交易》)执导及编剧,主线为三方故事:一个毒品走私犯安排了一场跨越美国和加拿大、涉及多集团的芬太尼走私行动;一个从奥施康定成瘾中恢复的建筑设计师发现她的儿子跟毒枭有联系事件背后的真相;一个大学教授与他的雇主被曝光的真相作斗争,这家与政府联系很深的药品公司试图把一种“非上瘾”止痛药投入市场。
  
  亚雷茨基称,该片想表现“鸦片类药物滥用危机已经触及到社会的每个角落,影响是毁灭性的”。影片为加拿大-比利时合拍片,会在柏林的欧洲电影交易市场卖片。

Video
ID : 1
Format : AVC
Format/Info : Advanced Video Codec
Format profile : [email protected]
Format settings : CABAC / 4 Ref Frames
Format settings, CABAC : Yes
Format settings, Reference frames : 4 frames
Codec ID : V_MPEG4/ISO/AVC
Duration : 1 h 58 min
Bit rate : 10.7 Mb/s
Width : 1 920 pixels
Height : 816 pixels
Display aspect ratio : 2.35:1
Frame rate mode : Constant
Frame rate : 23.976 (24000/1001/189150) FPS
Color space : YUV
Chroma subsampling : 4:2:0
Bit depth : 8 bits
Scan type : Progressive
Bits/(Pixel*Frame) : 0.285
Stream size : 8.86 GiB (94%)
Default : Yes
Forced : No
Color range : Limited
Color primaries : BT.709
Transfer characteristics : BT.709
Matrix coefficients : BT.709

Audio
ID : 2
Format : E-AC-3
Format/Info : Enhanced AC-3
Commercial name : Dolby Digital Plus
Codec ID : A_EAC3
Duration : 1 h 58 min
Bit rate mode : Constant
Bit rate : 640 kb/s
Channel(s) : 6 channels
Channel layout : L R C LFE Ls Rs
Sampling rate : 48.0 kHz
Frame rate : 31.250 FPS (1536 SPF)
Compression mode : Lossy
Stream size : 543 MiB (6%)
Title : English
Language : English
Service kind : Complete Main
Default : No
Forced : No

Text
ID : 3
Format : UTF-8
Codec ID : S_TEXT/UTF8
Codec ID/Info : UTF-8 Plain Text
Duration : 1 h 56 min
Bit rate : 66 b/s
Count of elements : 2019
Stream size : 56.8 KiB (0%)
Title : English (SDH)
Language : English
Default : No
Forced : No





1 个附件 售价 大小 下载 时间

Crisis.2021.1080p.AMZN.WEBRip.DDP5.1.x264-CM.zip 0 金币 47.63K 1127 次 1月前

#1楼
发帖时间:2021-03-05 14:51:50   |   回复数:1
liyouchai
隐世仙人♂
谢谢楼主分享资源
1月前 #2楼
游客组