travismk
一代宗师

[更 早] [欧美] [剧情] [WEB-720P] 爱情傻子/锡晒你 Fool.For.Love.1985.720p.STAN.WEBRip.AAC2.0.x264-WELP 3.26GB

-->

帖子完整标题:爱情傻子/锡晒你 Fool.For.Love.1985.720p.STAN.WEBRip.AAC2.0.x264-WELP 3.26GB



◎译  名 爱情傻子/锡晒你
◎片  名 Fool for Love
◎年  代 1985
◎产  地 美国
◎类  别 剧情
◎语  言 英语
◎上映日期 1985-12-06
◎IMDb评分 6.1/10 from 2355 users
◎IMDb链接 https://www.imdb.com/title/tt0089160/
◎豆瓣评分 7.3/10 from 89 users
◎豆瓣链接 https://movie.douban.com/subject/1301471/
◎片  长 106 分钟
◎导  演 罗伯特·奥特曼 Robert Altman
◎编  剧 山姆·夏普德 Sam Shepard
◎主  演 山姆·夏普德 Sam Shepard
      金·贝辛格 Kim Basinger
      哈利·戴恩·斯坦通 Harry Dean Stanton
      兰迪·奎德 Randy Quaid

◎标  签 美国 | 美国电影 | 罗伯特·奥尔特曼 | 爱情 | 1985 | 罗伯特·奥特曼 | Robert_Altman | RobertAltman

◎简  介

  暂无相关剧情介绍

◎获奖情况

  第39届戛纳电影节 ?(1986)
  主竞赛单元金棕榈奖(提名) 罗伯特·奥特曼

Video
ID : 1
Format : AVC
Format/Info : Advanced Video Codec
Format profile : [email protected]
Format settings : CABAC / 9 Ref Frames
Format settings, CABAC : Yes
Format settings, Reference frames : 9 frames
Codec ID : V_MPEG4/ISO/AVC
Duration : 1 h 47 min
Bit rate : 4 222 kb/s
Width : 1 280 pixels
Height : 720 pixels
Display aspect ratio : 16:9
Frame rate mode : Constant
Frame rate : 23.976 (24000/1001/189150) FPS
Color space : YUV
Chroma subsampling : 4:2:0
Bit depth : 8 bits
Scan type : Progressive
Bits/(Pixel*Frame) : 0.191
Stream size : 3.16 GiB (97%)
Default : Yes
Forced : No
Color range : Limited
Color primaries : BT.709
Transfer characteristics : BT.709
Matrix coefficients : BT.709

Audio
ID : 2
Format : AAC LC
Format/Info : Advanced Audio Codec Low Complexity
Codec ID : A_AAC-2
Duration : 1 h 47 min
Bit rate : 126 kb/s
Channel(s) : 2 channels
Channel layout : L R
Sampling rate : 44.1 kHz
Frame rate : 43.066 FPS (1024 SPF)
Compression mode : Lossy
Stream size : 96.2 MiB (3%)
Language : English
Default : Yes
Forced : No

Text #1
ID : 3
Format : UTF-8
Codec ID : S_TEXT/UTF8
Codec ID/Info : UTF-8 Plain Text
Duration : 1 h 41 min
Bit rate : 54 b/s
Count of elements : 1187
Stream size : 40.2 KiB (0%)
Language : English
Default : No
Forced : No

Text #2
ID : 4
Format : UTF-8
Codec ID : S_TEXT/UTF8
Codec ID/Info : UTF-8 Plain Text
Duration : 1 h 44 min
Bit rate : 57 b/s
Count of elements : 1312
Stream size : 44.4 KiB (0%)
Title : SDH
Language : English
Default : No
Forced : No

Menu
01:45:23.000 : en:Credits





1 个附件 售价 大小 下载 时间

Fool.For.Love.1985.720p.STAN.WEBRip.AAC2.0.x264-WELP.zip 0 金币 33.28K 119 次 1月前

#1楼
发帖时间:2021-03-05 14:49:43   |   回复数:0
游客组