travismk
一代宗师

[2018] [欧美] [剧情] [WEB-1080P] 美国妇女大游行 This.is.Personal.2019.1080p.AMZN.WEBRip.DDP5.1.x264-PLiSSKEN 6.38GB

-->

帖子完整标题:美国妇女大游行 This.is.Personal.2019.1080p.AMZN.WEBRip.DDP5.1.x264-PLiSSKEN 6.38GB



◎译  名 美国妇女大游行/This Is Personal (formerly Til Everybody's Free)/女力革命(台)
◎片  名 This Is Personal
◎年  代 2018
◎产  地 美国
◎类  别 剧情
◎语  言 英语
◎上映日期 2019-01-28(圣丹斯电影节)
◎IMDb评分 5.7/10 from 86 users
◎IMDb链接 https://www.imdb.com/title/tt9673138/
◎豆瓣评分 /10 from 0 users
◎豆瓣链接 https://movie.douban.com/subject/30449608/
◎片  长 105分钟
◎导  演 艾米·博格 Amy Berg
◎主  演 希拉里·罗德姆·克林顿 Hillary Rodham Clinton

◎标  签 纪录片 | 剧情

◎简  介

  妇女游行动员了数百万妇女在特朗普总统就职后抗议。但跨意识形态的工作以打击不公正也有其挑战。奥斯卡奖——提名导演艾米·伯格重返圣丹斯电影节,她带着一个内部人士的视角审视了妇女游行领导层中的跨部门激进主义斗争。
  
  Berg捕捉到了2017年第一次游行的合作组织过程和充满希望的能量,并花时间在幕后,强调在人群消退后持续进行的工作。对于妇女游行联合主席塔米卡·马洛里和社区组织领导人埃里卡·安迪奥拉来说,游行只是他们更广泛的活动的冰山一角,而安迪奥拉主张移民权利,马洛里反对枪支暴力。当马洛里因与路易·法拉坎部长的关系而受到攻击时,马洛里和拉比·雷切尔·蒂莫纳之间的一次强有力的对话开启了一场关于跨部门领导的对话。
  
  鉴于包括马洛里在内的四位妇女游行领袖最近的争论,伯格的电影为讨论困扰妇女运动一个世纪的问题提供了一个及时的跳板。

Video
ID : 1
Format : AVC
Format/Info : Advanced Video Codec
Format profile : [email protected]
Format settings : CABAC / 4 Ref Frames
Format settings, CABAC : Yes
Format settings, Reference frames : 4 frames
Codec ID : V_MPEG4/ISO/AVC
Duration : 1 h 38 min
Bit rate mode : Constant
Bit rate : 8 603 kb/s
Nominal bit rate : 10 000 kb/s
Width : 1 920 pixels
Height : 1 080 pixels
Display aspect ratio : 16:9
Frame rate mode : Constant
Frame rate : 23.976 (24000/1001/189150) FPS
Color space : YUV
Chroma subsampling : 4:2:0
Bit depth : 8 bits
Scan type : Progressive
Bits/(Pixel*Frame) : 0.173
Stream size : 5.93 GiB (93%)
Default : Yes
Forced : No
Color range : Limited
Color primaries : BT.709
Transfer characteristics : BT.709
Matrix coefficients : BT.709

Audio
ID : 2
Format : E-AC-3
Format/Info : Enhanced AC-3
Commercial name : Dolby Digital Plus
Codec ID : A_EAC3
Duration : 1 h 38 min
Bit rate mode : Constant
Bit rate : 640 kb/s
Channel(s) : 6 channels
Channel layout : L R C LFE Ls Rs
Sampling rate : 48.0 kHz
Frame rate : 31.250 FPS (1536 SPF)
Compression mode : Lossy
Stream size : 452 MiB (7%)
Language : English
Service kind : Complete Main
Default : Yes
Forced : No

Text
ID : 3
Format : UTF-8
Codec ID : S_TEXT/UTF8
Codec ID/Info : UTF-8 Plain Text
Duration : 1 h 36 min
Bit rate : 88 b/s
Count of elements : 1532
Stream size : 62.6 KiB (0%)
Title : SDH
Language : English
Default : No
Forced : No





1 个附件 售价 大小 下载 时间

This.is.Personal.2019.1080p.AMZN.WEBRip.DDP5.1.x264-PLiSSKEN.zip 0 金币 32.58K 154 次 1月前

#1楼
发帖时间:2021-03-05 14:45:57   |   回复数:0
游客组