travismk
一代宗师

[2019] [其他] [惊悚] [BD-4K] 恐怖大妈/大妈 Ma.2019.2160p.WEB-DL.x265.10bit.HDR.DTS-HD.MA.5.1-SWTYBLZ 19.33GB

-->

帖子完整标题:恐怖大妈/大妈 Ma.2019.2160p.WEB-DL.x265.10bit.HDR.DTS-HD.MA.5.1-SWTYBLZ 19.33GB



◎译  名 恐怖大妈/大妈/妈妈/老母/马大姐(豆友译名)
◎片  名 Ma
◎年  代 2019
◎产  地 日本,美国
◎类  别 惊悚 / 恐怖
◎语  言 英语
◎上映日期 2019-05-31(美国)
◎IMDb评分 5.6/10 from 40923 users
◎IMDb链接 https://www.imdb.com/title/tt7958736/
◎豆瓣评分 5.2/10 from 4647 users
◎豆瓣链接 https://movie.douban.com/subject/30137082/
◎片  长 99分钟
◎导  演 泰特·泰勒 Tate Taylor
◎编  剧 斯科蒂·兰德斯 Scotty Landes
◎主  演 奥克塔维亚·斯宾瑟 Octavia Spencer
      米西·派勒 Missi Pyle
      卢克·伊万斯 Luke Evans
      朱丽叶特·刘易斯 Juliette Lewis
      戴安娜·西尔弗斯 Diana Silvers
      艾莉森·珍妮 Allison Janney
      麦克利·米勒 McKaley Miller
      多米尼克·伯吉斯 Dominic Burgess
      维克托·特平 Victor Turpin
      丹特·布朗 Dante Brown
      柯瑞·福格尔玛尼斯 Corey Fogelmanis
      可亚娜·西蒙妮·辛普森 Kyanna Simone Simpson
      詹尼·保罗 Gianni Paolo
      安德鲁·马修·韦尔奇 Andrew Matthew Welch

◎标  签 惊悚 | 恐怖 | 美国 | 2019 | 悬疑 | 犯罪 | 霸凌 | 剧情

◎简  介

  故事讲述一群年轻人结识了一个陌生女子,陌生人热情地邀请这群年轻人在自己的家中开Party,然而意外和恐怖的事情却接连发生……

Video
ID : 1
Format : HEVC
Format/Info : High Efficiency Video Coding
Format profile : Main [email protected]@High
HDR format : SMPTE ST 2086, HDR10 compatible
Codec ID : V_MPEGH/ISO/HEVC
Duration : 1 h 39 min
Bit rate : 24.2 Mb/s
Width : 3 840 pixels
Height : 2 160 pixels
Display aspect ratio : 16:9
Frame rate mode : Constant
Frame rate : 23.976 (24000/1001/189150) FPS
Color space : YUV
Chroma subsampling : 4:2:0 (Type 2)
Bit depth : 10 bits
Bits/(Pixel*Frame) : 0.122
Stream size : 16.8 GiB (87%)
Default : Yes
Forced : No
Color range : Limited
Color primaries : BT.2020
Transfer characteristics : PQ
Matrix coefficients : BT.2020 non-constant
Mastering display color primaries : BT.2020
Mastering display luminance : min: 0.0050 cd/m2, max: 1000 cd/m2
Maximum Content Light Level : 1000 cd/m2
Maximum Frame-Average Light Level : 158 cd/m2

Audio #1
ID : 2
Format : DTS XLL
Format/Info : Digital Theater Systems
Commercial name : DTS-HD Master Audio
Codec ID : A_DTS
Duration : 1 h 39 min
Bit rate mode : Variable
Bit rate : 3 374 kb/s
Channel(s) : 6 channels
Channel layout : C L R Ls Rs LFE
Sampling rate : 48.0 kHz
Frame rate : 93.750 FPS (512 SPF)
Bit depth : 24 bits
Compression mode : Lossless
Delay relative to video : 250 ms
Stream size : 2.34 GiB (12%)
Title : DTS-HD MA 5.1
Language : English
Default : Yes
Forced : No

Audio #2
ID : 3
Format : E-AC-3
Format/Info : Enhanced AC-3
Commercial name : Dolby Digital Plus
Codec ID : A_EAC3
Duration : 1 h 39 min
Bit rate mode : Constant
Bit rate : 256 kb/s
Channel(s) : 6 channels
Channel layout : L R C LFE Ls Rs
Sampling rate : 48.0 kHz
Frame rate : 31.250 FPS (1536 SPF)
Compression mode : Lossy
Stream size : 182 MiB (1%)
Title : DDP 5.1
Language : English
Service kind : Complete Main
Default : No
Forced : No

Text
ID : 4
Format : UTF-8
Codec ID : S_TEXT/UTF8
Codec ID/Info : UTF-8 Plain Text
Duration : 1 h 39 min
Bit rate : 79 b/s
Count of elements : 2012
Stream size : 57.8 KiB (0%)
Language : English
Default : Yes
Forced : No

Menu
00:00:00.000 : en:Chapter 1
00:05:07.807 : en:Chapter 2
00:10:42.350 : en:Chapter 3
00:15:52.743 : en:Chapter 4
00:19:27.166 : en:Chapter 5
00:25:44.209 : en:Chapter 6
00:30:02.801 : en:Chapter 7
00:35:02.392 : en:Chapter 8
00:40:19.792 : en:Chapter 9
00:45:13.836 : en:Chapter 10
00:50:08.964 : en:Chapter 11
00:54:34.688 : en:Chapter 12
00:57:49.675 : en:Chapter 13
01:02:11.019 : en:Chapter 14
01:06:09.299 : en:Chapter 15
01:11:45.301 : en:Chapter 16
01:16:23.829 : en:Chapter 17
01:20:30.868 : en:Chapter 18
01:25:23.327 : en:Chapter 19
01:32:41.473 : en:Chapter 20




#1楼
发帖时间:2021-03-05 14:07:35   |   回复数:0
游客组