travismk
一代宗师

[2019] [欧美] [喜剧] [BD-4K] 自卫的艺术/自卫艺术 The.Art.of.Self.Defense.2019.2160p.WEB-DL.x265.10bit.SDR.DTS-HD.MA.5.

-->

帖子完整标题:自卫的艺术/自卫艺术 The.Art.of.Self.Defense.2019.2160p.WEB-DL.x265.10bit.SDR.DTS-HD.MA.5.1-SWTYBLZ 20.56GB



◎译  名 自卫的艺术/自卫艺术/自我防卫的艺术/都是自卫惹的祸(台)
◎片  名 The Art of Self-Defense
◎年  代 2019
◎产  地 美国
◎类  别 喜剧
◎语  言 英语,法语,德语
◎上映日期 2019-03-10(西南偏南电影节) / 2019-07-12(美国)
◎IMDb评分 6.7/10 from 27822 users
◎IMDb链接 https://www.imdb.com/title/tt7339248/
◎豆瓣评分 7.3/10 from 11707 users
◎豆瓣链接 https://movie.douban.com/subject/27138615/
◎片  长 104分钟
◎导  演 莱利·斯特恩斯 Riley Stearns
◎编  剧 莱利·斯特恩斯 Riley Stearns
◎主  演 杰西·艾森伯格 Jesse Eisenberg
      亚历桑德罗·尼沃拉 Alessandro Nivola
      伊莫琴·普茨 Imogen Poots
      菲利普·安德烈·博特略 Phillip Andre Botello
      利兰·奥瑟 Leland Orser
      乔希·法德姆 Josh Fadem
      杰森·伯基 Jason Burkey
      大卫·泽尔纳 David Zellner
      戴维·约翰逊 Davey Johnson

◎标  签 黑色幽默 | 美国 | 喜剧 | 犯罪 | 2019 | 杰西艾森伯格 | 社会 | JesseEisenberg

◎简  介

  Bleecker Street购得莱利·斯特恩斯执导的黑色喜剧新片《自卫艺术》 的全球发行权,杰西·艾森伯格、伊莫珍·波茨、亚历桑德罗·尼沃拉主演,艾森伯格饰演一个在街上莫名遭遇攻击的倒霉孩子,后加入柔道训练学校跟着极有魅力又充满神秘的师傅(尼沃拉饰)学习自卫防御术,揭开了充满兄弟会情谊、暴力、超男子主义的邪恶世界的面纱,波茨扮演的女主角正努力奋斗想取得一席地位。该片已于周一在肯塔基开拍。

Video
ID : 1
Format : HEVC
Format/Info : High Efficiency Video Coding
Format profile : Main [email protected]@High
Codec ID : V_MPEGH/ISO/HEVC
Duration : 1 h 44 min
Bit rate : 24.8 Mb/s
Width : 3 840 pixels
Height : 2 160 pixels
Display aspect ratio : 16:9
Frame rate mode : Constant
Frame rate : 23.976 (24000/1001/189150) FPS
Color space : YUV
Chroma subsampling : 4:2:0 (Type 2)
Bit depth : 10 bits
Bits/(Pixel*Frame) : 0.124
Stream size : 18.0 GiB (88%)
Default : Yes
Forced : No
Color range : Limited
Color primaries : BT.709
Transfer characteristics : BT.709
Matrix coefficients : BT.709

Audio #1
ID : 2
Format : DTS XLL
Format/Info : Digital Theater Systems
Commercial name : DTS-HD Master Audio
Codec ID : A_DTS
Duration : 1 h 44 min
Bit rate mode : Variable
Bit rate : 3 203 kb/s
Channel(s) : 6 channels
Channel layout : C L R Ls Rs LFE
Sampling rate : 48.0 kHz
Frame rate : 93.750 FPS (512 SPF)
Bit depth : 24 bits
Compression mode : Lossless
Delay relative to video : 200 ms
Stream size : 2.33 GiB (11%)
Title : DTS-HD MA 5.1
Language : English
Default : Yes
Forced : No

Audio #2
ID : 3
Format : E-AC-3
Format/Info : Enhanced AC-3
Commercial name : Dolby Digital Plus
Codec ID : A_EAC3
Duration : 1 h 44 min
Bit rate mode : Constant
Bit rate : 256 kb/s
Channel(s) : 6 channels
Channel layout : L R C LFE Ls Rs
Sampling rate : 48.0 kHz
Frame rate : 31.250 FPS (1536 SPF)
Compression mode : Lossy
Stream size : 191 MiB (1%)
Title : DDP 5.1
Language : English
Service kind : Complete Main
Default : No
Forced : No

Text #1
ID : 4
Format : UTF-8
Codec ID : S_TEXT/UTF8
Codec ID/Info : UTF-8 Plain Text
Duration : 1 h 39 min
Bit rate : 52 b/s
Count of elements : 1010
Stream size : 38.4 KiB (0%)
Language : English
Default : Yes
Forced : No

Text #2
ID : 5
Format : UTF-8
Codec ID : S_TEXT/UTF8
Codec ID/Info : UTF-8 Plain Text
Duration : 1 h 36 min
Bit rate : 1 b/s
Count of elements : 25
Stream size : 860 Bytes (0%)
Language : English
Default : No
Forced : No





2 个附件 售价 大小 下载 时间

The.Art.of.Self.Defense.2019.2160p.WEB-DL.x265.10bit.SDR.DTS-HD.MA.5.1-SWTYBLZ.zip 0 金币 52.13K 596 次 1月前

Ma.2019.2160p.WEB-DL.x265.10bit.HDR.DTS-HD.MA.5.1-SWTYBLZ.zip 0 金币 97.32K 301 次 1月前

#1楼
发帖时间:2021-03-05 14:07:35   |   回复数:0
游客组