travismk
一代宗师

[2019] [欧美] [惊悚] [BD-Remux] 蹂躏 Swing.Low.2019.1080p.BluRay.REMUX.AVC.DTS-HD.MA.5.1-FGT 14.05GB

-->

帖子完整标题:蹂躏 Swing.Low.2019.1080p.BluRay.REMUX.AVC.DTS-HD.MA.5.1-FGT 14.05GB



◎译  名 蹂躏/Swing Low
◎片  名 Ravage
◎年  代 2019
◎产  地 美国
◎类  别 惊悚
◎语  言 英语
◎上映日期 
◎IMDb评分 4.9/10 from 877 users
◎IMDb链接 https://www.imdb.com/title/tt8191620/
◎豆瓣评分 /10 from 0 users
◎豆瓣链接 https://movie.douban.com/subject/34839474/
◎片  长 84分钟
◎主  演 布鲁斯·邓恩 Bruce Dern
      安娜贝尔·德克斯特-琼斯 Annabelle Dexter-Jones
      埃里克·尼尔森 Eric Nelsen
      罗伯特·朗斯特里特 Robert Longstreet
      罗斯·帕特里奇 Ross Partridge
      迈克尔·韦弗 Michael Weaver

◎标  签 美国 | 惊悚 | 2019 | 犯罪 | 欧美小妞 | 性奴,反转 | 动作 | [歐美]

◎简  介

  When a nature photographer explains to the Police how she fought her way out of the Watchatoomy Valley, they dismiss her crazed and violent story as a meth-induced nightmare. But when they discover that she's telling the truth, it's too late.

Video
ID : 1
ID in the original source medium : 4113 (0x1011)
Format : AVC
Format/Info : Advanced Video Codec
Format profile : [email protected]
Format settings : CABAC / 2 Ref Frames
Format settings, CABAC : Yes
Format settings, Reference frames : 2 frames
Codec ID : V_MPEG4/ISO/AVC
Duration : 1 h 24 min
Bit rate mode : Variable
Bit rate : 22.3 Mb/s
Maximum bit rate : 30.2 Mb/s
Width : 1 920 pixels
Height : 1 080 pixels
Display aspect ratio : 16:9
Frame rate mode : Constant
Frame rate : 23.976 (24000/1001/189150) FPS
Color space : YUV
Chroma subsampling : 4:2:0
Bit depth : 8 bits
Scan type : Progressive
Bits/(Pixel*Frame) : 0.448
Stream size : 13.1 GiB (93%)
Language : English
Default : No
Forced : No
Original source medium : Blu-ray

Audio
ID : 2
ID in the original source medium : 4353 (0x1101)
Format : DTS XLL
Format/Info : Digital Theater Systems
Commercial name : DTS-HD Master Audio
Codec ID : A_DTS
Duration : 1 h 24 min
Bit rate mode : Variable
Bit rate : 1 616 kb/s
Channel(s) : 6 channels
Channel layout : C L R Ls Rs LFE
Sampling rate : 48.0 kHz
Frame rate : 93.750 FPS (512 SPF)
Bit depth : 16 bits
Compression mode : Lossless
Stream size : 972 MiB (7%)
Title : DTS-HD MA 5.1
Language : English
Default : Yes
Forced : No
Original source medium : Blu-ray

Text
ID : 3
Format : UTF-8
Codec ID : S_TEXT/UTF8
Codec ID/Info : UTF-8 Plain Text
Duration : 1 h 23 min
Bit rate : 24 b/s
Count of elements : 479
Stream size : 14.8 KiB (0%)
Title : English-SRT
Language : English
Default : Yes
Forced : No

Menu
00:00:00.000 : en:Chapter 01
00:08:22.752 : en:Chapter 02
00:14:56.437 : en:Chapter 03
00:24:21.918 : en:Chapter 04
00:29:33.104 : en:Chapter 05
00:37:03.888 : en:Chapter 06
00:43:52.212 : en:Chapter 07
00:49:51.279 : en:Chapter 08
00:59:47.250 : en:Chapter 09
01:03:14.665 : en:Chapter 10
01:07:10.651 : en:Chapter 11
01:20:45.966 : en:Chapter 12





1 个附件 售价 大小 下载 时间

Swing.Low.2019.1080p.BluRay.REMUX.AVC.DTS-HD.MA.5.1-FGT.zip 0 金币 70.92K 2212 次 1月前

#1楼
发帖时间:2021-03-05 12:37:18   |   回复数:0
游客组