travismk
一代宗师

[更 早] [欧美] [惊悚] [WEB-1080P] 下方的恶魔 Shookum.Hills.2021.1080p.WEB-DL.DD5.1.H264-FGT 3.11GB

-->

帖子完整标题:下方的恶魔 Shookum.Hills.2021.1080p.WEB-DL.DD5.1.H264-FGT 3.11GB



◎译  名 下方的恶魔/Sinkhole/The Devil Below/魔坑(台)
◎片  名 Shookum Hills
◎年  代 2021
◎产  地 美国
◎类  别 惊悚 / 恐怖
◎语  言 英语
◎上映日期 2021-03-05(美国)
◎IMDb链接 https://www.imdb.com/title/tt7646322/
◎豆瓣评分 /10 from 0 users
◎豆瓣链接 https://movie.douban.com/subject/30312845/
◎导  演 布莱德利·帕克 Bradley Parker
◎主  演 阿丹·坎托 Adan Canto
      威尔·帕顿 Will Patton
      乔纳森·萨多斯基 Jonathan Sadowski
      内森·菲利普斯 Nathan Phillips
      艾丽西亚·桑兹 Alicia Sanz
      威廉·麦克·麦库洛 William Mark McCullough
      才那扎·乌奇 Chinaza Uche
      凯文·韦恩 Kevin Wayne
      扎克·艾弗里 Zach Avery
      杰西·拉图雷特 Jesse LaTourette

◎标  签 恐怖 | 2021 | 惊悚 | 美国电影 | 美国 | 恐怖片 | 未上映 | 美影

◎简  介

  在位于阿帕拉契山脉的乡间小镇地底下,有座已燃烧数十年的废弃煤矿。一支研究小队前往该地试图找出当年矿坑起火燃烧的原因,却意外挖掘出更令人吃惊的恐怖秘密……

Video
ID : 1
Format : AVC
Format/Info : Advanced Video Codec
Format profile : [email protected]
Format settings : CABAC / 4 Ref Frames
Format settings, CABAC : Yes
Format settings, Reference frames : 4 frames
Codec ID : V_MPEG4/ISO/AVC
Duration : 1 h 28 min
Bit rate : 4 619 kb/s
Width : 1 908 pixels
Height : 1 026 pixels
Display aspect ratio : 1.85:1
Frame rate mode : Constant
Frame rate : 23.976 (24000/1001/189150) FPS
Color space : YUV
Chroma subsampling : 4:2:0
Bit depth : 8 bits
Scan type : Progressive
Bits/(Pixel*Frame) : 0.098
Stream size : 2.87 GiB (92%)
Language : English
Default : Yes
Forced : No
Color range : Limited
Color primaries : BT.709
Transfer characteristics : BT.709
Matrix coefficients : BT.709

Audio
ID : 2
Format : AC-3
Format/Info : Audio Coding 3
Commercial name : Dolby Digital
Codec ID : A_AC3
Duration : 1 h 28 min
Bit rate mode : Constant
Bit rate : 384 kb/s
Channel(s) : 6 channels
Channel layout : L R C LFE Ls Rs
Sampling rate : 48.0 kHz
Frame rate : 31.250 FPS (1536 SPF)
Compression mode : Lossy
Stream size : 244 MiB (8%)
Language : English
Service kind : Complete Main
Default : Yes
Forced : No

Text
ID : 3
Format : UTF-8
Codec ID : S_TEXT/UTF8
Codec ID/Info : UTF-8 Plain Text
Duration : 1 h 19 min
Bit rate : 37 b/s
Count of elements : 825
Stream size : 21.8 KiB (0%)
Language : English
Default : Yes
Forced : No





1 个附件 售价 大小 下载 时间

Shookum.Hills.2021.1080p.WEB-DL.DD5.1.H264-FGT.zip 0 金币 31.74K 847 次 1月前

#1楼
发帖时间:2021-03-05 11:22:46   |   回复数:1
show55667878
武林高手
感謝分享這電影
1月前 #2楼
游客组